#TITLE:RHYTHM & POLICE;
#SUBTITLE:(W200);
#ARTIST:CJ Crew VS DJ Potatoe;
#TITLETRANSLIT:;
#SUBTITLETRANSLIT:;
#ARTISTTRANSLIT:;
#CREDIT:;
#BANNER:R&P-banner.png;
#BACKGROUND:R&P-bg.png;
#LYRICSPATH:;
#CDTITLE:;
#MUSIC:rhythm police 200.mp3;
#MUSICLENGTH:88.868;
#OFFSET:-0.100;
#SAMPLESTART:58.685;
#SAMPLELENGTH:12.000;
#SELECTABLE:YES;
#BPMS:0.000=200.000;
#STOPS:;
#BGCHANGES:;
#FIRSTBEAT:4.000;

#LASTBEAT:294.000;

#SONGFILENAME:Songs/ERICth MIX 2nd Style/rhythm w200/rhythm w200.sm;

#HASMUSIC:1;

#HASBANNER:1;


//---------------dance-single - MANIAC----------------
#NOTES:
     dance-single:
     MANIAC:
     hard:
     9:
     0.757,0.827,0.506,0.461,0.000,385.000,45.000,41.000,0.000,0.000:

0000
0000
0000
0000
,
0000
0000
0000
0000
,
0000
0000
0000
0000
,
0000
0000
0000
0000
,
0000
0000
0000
0000
,
0000
0000
0000
0000
,
0000
0000
0000
0000
,
0000
0000
0000
0000
,
0010
1000
0100
2000
0000
3100
0000
0010
,
0001
0100
0001
0100
0001
0100
0001
0100
,
0010
0100
0001
2000
0000
3010
0000
0100
,
0001
1000
0001
1000
0001
1000
0001
1000
,
0100
0010
0100
2000
0000
3001
0000
0001
,
1000
0010
1000
0010
1000
0010
1000
0010
,
0100
0000
0000
0100
0000
0100
0000
0100
,
0002
0000
0003
0000
,
1001
1100
0011
0001
,
1001
1010
0101
1000
,
0110
1001
0101
1100
,
1000
0100
1000
0000
0001
0010
0001
0000
,
1001
0110
0011
0011
,
1001
0110
1100
1100
,
0110
1001
1001
0101
,
0220
0000
0000
0000
0000
0330
0000
0000
,
0010
1000
0100
0001
0100
1000
0010
0001
,
0010
1000
0100
0001
0100
1000
0010
1000
,
0100
1000
0010
1000
0100
0001
0100
0010
,
0100
0010
0100
0010
0001
0010
1000
0010
,
0001
1000
0100
0001
0100
1000
0010
1000
,
0010
1000
0001
1000
0001
0100
0001
1000
,
0001
0010
0001
1000
0010
0000
0000
0000
,
0022
0000
0000
0000
0000
0033
0000
0000
,
1000
2000
3100
0200
0301
0002
0103
0000
,
1000
0001
1000
0001
1000
0001
1000
0000
,
0010
0020
1030
2000
3100
0200
0310
0000
,
0100
0010
0100
0010
0100
0010
0100
0000
,
1000
0010
1000
0001
0100
0001
2000
0000
,
3010
0020
0130
0200
0301
0002
1003
0000
,
1100
0000
0101
0000
0200
0302
0023
0030
,
1000
0010
1000
0001
0010
0001
0010
0000
,
0100
0010
0100
0001
0100
1000
0100
1000
,
0100
0001
0100
0001
0100
0010
0100
0000
,
0000
1000
0000
0100
0000
0010
0000
0001
,
0010
0110
2002
3003
,
0010
1000
0001
0010
0001
1000
0010
0000
,
0010
0001
1000
0010
1000
0001
0010
0000
,
0100
0010
0100
0010
0100
0010
0001
0000
,
0001
0010
1000
0010
0001
0010
1000
0000
,
1000
0000
0100
0010
0100
0000
0110
0000
,
1000
0001
0010
0002
0000
0023
0000
0031
,
1000
0100
1000
0010
1000
0100
1000
0000
,
1100
0000
0000
1010
0000
0011
0000
1010
,
1100
0000
1000
0001
0010
0001
0010
0000
,
0010
0100
0001
0200
0000
0320
0000
0031
,
1000
0100
0001
0100
1000
0100
0001
0000
,
0011
0000
0000
0101
0000
1100
0000
0101
,
0011
0000
0010
0001
1000
0100
1000
0000
,
2010
0001
0100
3001
,
0012
1000
0100
1003
,
1000
2000
3100
0200
0310
0020
0031
0000
,
1000
2000
3100
0200
0310
0020
0031
0000
,
0210
0001
0010
0301
,
0210
1000
0010
1300
,
1000
0010
1000
0001
0010
0000
0010
0000
,
2020
0000
0000
0000
0000
3030
0000
0000
,
0010
1000
0100
0001
0100
1000
0010
0001
,
0010
1000
0100
0001
0100
1000
0010
1000
,
0100
1000
0010
1000
0100
0001
0100
0010
,
0100
0010
0100
0010
0001
0010
1000
0010
,
0001
1000
0100
0001
0100
1000
0010
1000
,
0010
1000
0001
1000
0001
0100
0001
1000
,
0001
0010
0001
1000
0010
1000
0001
0010
,
1000
1000
1000
0010
,
2002
0000
3003
0000;

//---------------dance-single - ANOTHER----------------
#NOTES:
     dance-single:
     ANOTHER:
     medium:
     4:
     0.540,0.701,0.023,0.045,0.000,330.000,2.000,4.000,0.000,0.000:

0000
0000
0000
0000
,
0000
0000
0000
0000
,
0000
0000
0000
0000
,
0000
0000
0000
0000
,
0001
0000
0000
0000
,
1000
0000
0000
0000
,
0100
0000
0000
0000
,
0020
0000
0000
0000
0000
0000
0000
0030
,
1000
0000
0100
0000
1000
0000
0010
0100
,
0001
1000
0100
0010
,
0001
0000
0000
1000
0000
0100
0000
0010
,
0001
0100
1000
0010
,
0100
0000
0000
0001
0000
1000
0000
0001
,
0100
0001
1000
0100
,
0010
0000
0000
0100
0000
0010
0000
0100
,
0010
0001
1000
0100
,
1000
0100
1000
0000
0001
0100
0001
0000
,
1000
0100
1000
0000
0001
0100
0001
0000
,
1000
0010
1000
0000
0001
0010
0001
0000
,
1000
0010
1000
0000
0001
0010
0001
0000
,
1000
0001
0100
0000
0001
0100
0001
0000
,
0001
0100
0001
0000
0001
1000
0001
0000
,
0100
0001
1000
0000
0010
0100
0001
0000
,
1000
0001
1000
0000
0100
0000
0000
0000
,
0010
0000
1000
0000
0100
0000
0010
0001
,
1000
0100
0010
0001
,
1000
0000
0010
0100
0010
0100
0000
0000
,
0000
0001
0000
0000
1000
0100
0000
0000
,
0000
0010
1000
0100
,
0010
0000
0001
0000
1000
0100
1000
0000
,
0000
0010
1000
0000
0000
0100
0000
0000
,
1000
0001
1000
0000
,
0001
0000
1000
0000
0100
0010
0100
0000
,
1000
0000
0001
0000
0100
0001
1000
0000
,
0100
0000
0001
0000
1000
0010
1000
0000
,
0001
0010
0100
1000
0001
0010
0100
0000
,
0001
1000
0010
1000
,
0010
1000
0010
0000
0001
0000
0000
0000
,
0001
0000
0001
1000
,
0010
0000
1000
0000
0001
0010
0100
0000
,
0001
0000
1000
0000
0010
0100
0010
0100
,
0010
0001
1000
0100
,
0010
0001
0000
0001
0000
0001
0000
0001
,
0100
0001
2002
0000
,
3003
0001
1000
0010
,
0100
0000
0010
0001
,
1000
0010
1000
0001
1000
0100
0010
0000
,
0001
0000
1000
0000
0010
1000
0010
0000
,
0000
0000
0001
1000
0000
0001
0000
0000
,
0000
0000
0001
1000
0000
0001
0000
0010
,
0100
0000
1000
0000
0001
0010
0100
1000
,
0001
0000
0100
0010
0000
1000
0000
0001
,
0010
0000
0100
0010
0100
1000
0001
0000
,
0010
0001
0100
0001
0000
1000
0000
0001
,
0100
0010
1000
0001
,
0010
0000
0100
1000
0000
0010
0000
0100
,
0001
0000
1000
0000
0010
0100
0001
0000
,
1000
0100
0010
0100
1000
0100
0010
0001
,
0100
1000
0100
0001
1000
0100
1000
0100
,
0001
0100
0010
0100
1000
0010
1000
0100
,
1000
0001
1000
0010
1000
0100
1000
0001
,
1000
0010
1000
0100
1000
0001
1000
0010
,
1000
0001
1000
0010
1000
0100
1000
0001
,
1000
0100
1000
0001
1000
0100
1000
0000
,
0001
1000
0001
1000
,
1001
0100
0010
1000
,
0100
0010
0100
0000
0001
0000
1000
0000
,
0100
1000
0100
0000
0001
1000
0001
0000
,
0010
0000
1000
0000
0001
0010
0001
0000
,
0001
1000
0100
0010
,
0001
0000
1000
0000
0010
0100
0010
0000
,
1000
0001
0010
0000
0100
0000
1000
0000
,
0001
0000
0010
0000
0001
0000
0001
2000
,
0000
3000
0000
0000;

//---------------dance-single - BASIC----------------
#NOTES:
     dance-single:
     BASIC:
     easy:
     3:
     0.175,0.329,0.113,0.023,0.000,97.000,10.000,2.000,0.000,0.000:

0000
0000
0000
0000
,
0010
0000
0000
0000
,
1000
0000
0000
0000
,
0000
0000
0000
0000
,
1000
0000
0000
0000
,
0001
0000
0000
0000
,
0010
1000
0010
1000
,
0001
0000
0000
0000
,
1000
0000
0010
0000
,
0100
0000
0000
0000
,
0001
0000
0000
0000
,
1000
0000
0000
0000
,
0010
0100
0010
0000
,
0001
0000
0000
0000
,
1000
0000
0000
0000
,
1000
0000
0000
0000
,
0010
0000
0000
0000
,
0001
0000
0000
0000
,
1000
0000
0000
0000
,
0100
0000
0100
0000
,
0001
0000
0000
0000
,
1000
0000
0000
0000
,
0010
0000
0000
0000
,
0100
0100
0100
0100
,
0100
0000
0000
0000
,
0000
0000
0000
0000
,
0001
0000
0000
0000
,
0000
0000
0000
0000
,
1000
0000
0000
0000
,
0010
0000
0000
0000
,
0001
0000
0000
0000
,
1000
0001
1000
0001
,
1001
0000
0100
0000
,
0000
0000
0011
0011
,
0100
0000
0000
0000
,
1000
0000
0001
0100
,
0000
0000
0000
0010
,
0010
0000
0001
0000
,
0100
0000
0000
0000
,
1000
0000
0000
0000
,
1100
0000
0000
0000
,
0000
0000
0000
0000
,
0011
0000
0000
0000
,
2002
0000
0000
0000
,
0000
0000
0000
0000
,
0000
0000
0000
3003
,
0010
1100
0000
0000
,
0001
0000
0000
0000
,
0100
0000
0010
0100
,
0001
0000
0000
0000
,
1000
0100
0010
0000
,
0001
0100
0010
0000
,
0001
0100
0010
0000
,
0001
0000
1000
0000
,
0001
0000
0000
0000
,
0010
0000
0000
0000
,
0010
0010
1000
0000
,
0001
0000
0000
0000
,
1000
0000
0000
0000
,
0010
0000
0000
0000
,
0010
0000
0000
0000
,
0100
0000
0000
0000
,
0100
0000
0000
0000
,
0001
0000
0000
0000
,
1000
0000
0000
0000
,
1001
0000
0000
0000
,
0100
0000
0000
0000
,
0001
0000
0000
0000
,
0011
0000
0000
0000
,
0100
0000
0000
0000
,
1000
0000
0000
0000
,
0010
0000
0000
0000
,
1000
0000
0000
0000
,
1001
0000
0000
0000;
